rarbg torrents
Catalog Top 10

Home
Movies
XXX
TV Shows
Games
Music
Anime
Apps
Doc
Other
Non XXX

Happy Death Day 2017 1080p BluRay REMUX DTS-HD MA 5.1 AVC-FraMeSToR [RiCK]

Torrent: Happy Death Day 2017 1080p BluRay REMUX DTS-HD MA 5.1 AVC-FraMeSToR [RiCK]
VPN:
Downloading torrents is getting riskier every day. Use a VPN to make yourself hidden while downloading torrents.
By using a VPN , your ISP and Government Agencies will not be able to spy on you, neither would they be able to track your online activity!
Poster:
Happy Death Day 2017 1080p BluRay REMUX DTS-HD MA 5.1 AVC-FraMeSToR [RiCK]
Others:
Codec Name S. L. Size

 

Description:



A college student must relive the day of her murder over and over again, in a loop that will end only when she discovers her killer's identity.

Happy.Death.Day.2017.BluRay.1080p.DTS-HD.MA.5.1.AVC.REMUX-FraMeSToR.mkv
File size : 23.8 GiB
Duration : 1 h 36 min
Overall bit rate mode : Variable
Overall bit rate : 35.4 Mb/s
Movie name : Happy Death Day
Encoded date : UTC 2018-01-09 05:42:50
Writing application : mkvmerge v19.0.0 ('Brave Captain') 64-bit
Writing library : libebml v1.3.5 + libmatroska v1.4.8

Video
ID : 1
Format : AVC
Format/Info : Advanced Video Codec
Format profile : [email protected]
Format settings : CABAC / 4 Ref Frames
Format settings, CABAC : Yes
Format settings, Reference frames : 4 frames
Codec ID : V_MPEG4/ISO/AVC
Duration : 1 h 36 min
Bit rate mode : Variable
Bit rate : 31.4 Mb/s
Maximum bit rate : 35.0 Mb/s
Width : 1 920 pixels
Height : 1 080 pixels
Display aspect ratio : 16:9
Frame rate mode : Constant
Frame rate : 23.976 (24000/1001) FPS
Color space : YUV
Chroma subsampling : 4:2:0
Bit depth : 8 bits
Scan type : Progressive
Bits/(Pixel*Frame) : 0.632
Stream size : 21.1 GiB (89%)
Default : Yes
Forced : No

Audio
ID : 2
Format : DTS XLL
Format/Info : Digital Theater Systems
Commercial name : DTS-HD Master Audio
Codec ID : A_DTS
Duration : 1 h 36 min
Bit rate mode : Variable
Bit rate : 3 886 kb/s
Channel(s) : 6 channels
Channel layout : C L R Ls Rs LFE
Sampling rate : 48.0 kHz
Frame rate : 93.750 FPS (512 SPF)
Bit depth : 24 bits
Compression mode : Lossless
Stream size : 2.61 GiB (11%)
Title : DTS-HD MA 5.1
Language : English
Default : Yes
Forced : No

Text #1
ID : 3
Format : PGS
Codec ID : S_HDMV/PGS
Codec ID/Info : Picture based subtitle format used on BDs/HD-DVDs
Duration : 1 h 29 min
Bit rate : 40.2 kb/s
Count of elements : 2894
Stream size : 25.6 MiB (0%)
Title : English (SDH)
Language : English
Default : No
Forced : No

Text #2
ID : 4
Format : PGS
Codec ID : S_HDMV/PGS
Codec ID/Info : Picture based subtitle format used on BDs/HD-DVDs
Duration : 1 h 34 min
Bit rate : 27.4 kb/s
Count of elements : 2332
Stream size : 18.6 MiB (0%)
Title : Spanish (Latin American)
Language : Spanish
Default : No
Forced : No

Text #3
ID : 5
Format : PGS
Codec ID : S_HDMV/PGS
Codec ID/Info : Picture based subtitle format used on BDs/HD-DVDs
Duration : 1 h 34 min
Bit rate : 28.0 kb/s
Count of elements : 2388
Stream size : 19.0 MiB (0%)
Title : French
Language : French
Default : No
Forced : No





Downloads: 3
Category: Movies/HD
Size: 23.8 GB
Show Files »
files
Added: 2021-11-26 11:08:26
Language: English
Title: Happy Death Day
Rating: 63
Genres: HorrorMysteryThriller
Year: 2017
Summery: A college student relives the day of her murder over and over again as she tries to discover her killer's identity.
Peers: Seeders : 10 , Leechers : 2
Tags: comedy horror mystery 
Release name: Happy Death Day 2017 1080p BluRay REMUX DTS-HD MA 5.1 AVC-FraMeSToR [RiCK]
Trackers:

http://tracker.openbittorrent.com:80/announce

udp://tracker.coppersurfer.tk:6969/announce

udp://tracker.openbittorrent.com:6969/announce

udp://tracker.opentrackr.org:1337

udp://tracker.leechers-paradise.org:6969/announce

udp://tracker.dler.org:6969/announce

udp://opentracker.i2p.rocks:6969/announce

udp://47.ip-51-68-199.eu:6969/announce

udp://tracker.opentrackr.org:1337/announce

udp://tracker.tallpenguin.org:15800/announce

udp://tracker.tallpenguin.org:15760

udp://tracker.tallpenguin.org:15720

udp://9.rarbg.to:2830/announce

udp://9.rarbg.to:2780

udp://tracker.thinelephant.org:12720/announce





By using this site you agree to and accept our user agreement. If you havent read the user agreement please do so here